Music Corner
Home > LOEKELOE > MUSIC > Music Corner > Non-Indonesian Video Corner - part 3
Total Views: 208616 Share : Facebook ShareFacebook Twitter ShareTwitter Google+ ShareGoogle+
Page 351 of 356 | ‹ First  < 346 347 348 349 350 351 352 353 354 355 356 > 

dr_veelgood - 06/09/2012 03:20 PM
#7001

The Samshing Pumpkins - The Celestials (Jay Leno 2012-08-23) HDTV 1080i DD5.1 MPEG2-R&C

Non-Indonesian Video Corner - part 3

Spoiler for info
General
ID : 1 (0x1)
Complete name : The Samshing Pumpkins - The Celestials (Jay Leno 2012-08-23) HDTV 1080i DD5.1 MPEG2-R&C -dRv-.ts
Format : MPEG-TS
File size : 491 MiB
Duration : 4mn 13s
Overall bit rate mode : Variable
Overall bit rate : 16.3 Mbps

Video
ID : 49 (0x31)
Menu ID : 1 (0x1)
Format : MPEG Video
Format version : Version 2
Format profile : Main@High
Format settings, BVOP : Yes
Format settings, Matrix : Custom
Codec ID : 2
Duration : 4mn 13s
Bit rate mode : Variable
Bit rate : 15.1 Mbps
Maximum bit rate : 16.9 Mbps
Width : 1 920 pixels
Height : 1 080 pixels
Display aspect ratio : 16:9
Active Format Description : Letterbox 16:9 image, with alternative 4:3 center
Frame rate : 29.970 fps
Standard : Component
Color space : YUV
Chroma subsampling : 4:2:0
Bit depth : 8 bits
Scan type : Interlaced
Scan order : Top Field First
Compression mode : Lossy
Bits/(Pixel*Frame) : 0.242
Stream size : 455 MiB (93%)
Color primaries : BT.709
Transfer characteristics : BT.709
Matrix coefficients : BT.709

Audio
ID : 52 (0x34)
Menu ID : 1 (0x1)
Format : AC-3
Format/Info : Audio Coding 3
Mode extension : CM (complete main)
Format settings, Endianness : Big
Codec ID : 129
Duration : 4mn 13s
Bit rate mode : Constant
Bit rate : 384 Kbps
Channel(s) : 6 channels
Channel positions : Front: L C R, Side: L R, LFE
Sampling rate : 48.0 KHz
Bit depth : 16 bits
Compression mode : Lossy
Stream size : 11.6 MiB (2%)
Language : English

Text #1
ID : 49 (0x31)-CC1
Menu ID : 1 (0x1)
Format : EIA-608
Muxing mode : A/53 / DTVCC Transport
Muxing mode, more info : Muxed in Video #1
Duration : 4mn 13s
Bit rate mode : Constant
Stream size : 0.00 Byte (0%)

Text #2
ID : 49 (0x31)-CC3
Menu ID : 1 (0x1)
Format : EIA-608
Muxing mode : A/53 / DTVCC Transport
Muxing mode, more info : Muxed in Video #1
Duration : 4mn 13s
Bit rate mode : Constant
Stream size : 0.00 Byte (0%)

Text #3
ID : 49 (0x31)-1
Menu ID : 1 (0x1)
Format : EIA-708
Muxing mode : A/53 / DTVCC Transport
Muxing mode, more info : Muxed in Video #1
Duration : 4mn 13s
Bit rate mode : Constant
Stream size : 0.00 Byte (0%)

Text #4
ID : 49 (0x31)-3
Menu ID : 1 (0x1)
Format : EIA-708
Muxing mode : A/53 / DTVCC Transport
Muxing mode, more info : Muxed in Video #1
Duration : 4mn 13s
Bit rate mode : Constant
Stream size : 0.00 Byte (0%)


[CODE]
http://uploaded.net/file/54e9ncal/
http://turbobit.net/7u2ew1pors7v.html
http://www.filefactory.com/file/5md3ijqpq7xj/n/The_Samshing_Pumpkins_-_The_Celestials_Jay_Leno_2012-0 8-23_HDTV_1080i_DD5_1_MPEG2-R_amp_C_-dRv-_ts
http://bitshare.com/files/61g4k5t4/The-Samshing-Pumpkins---The-Celestials--Jay-Leno-2012-08-23--HDTV- 1080i-DD5.1-MPEG2-R-C--dRv-.ts.html
[/CODE]
dr_veelgood - 06/09/2012 03:21 PM
#7002

dopost
gwiepay - 07/09/2012 03:10 PM
#7003

maaf gan mau ngerepotin ni Peace:
ada yg punya live concertnya the doors ga or videonya acara woodstock. mau dong gan malu
not responding - 07/09/2012 06:16 PM
#7004

langsung saja gan....
ini bukan ane yg upload...
buat yg eksis di 90an mau nostalgia...atau anak sekarang yg mau tahu gimana musik 90an...atau sekedar kolektor
semua video berkualitas seperti dibawah
video : x264
Audio : Mp3
Size : ~50mb
framesize : 720x576 / 720x480
Sumber : Vh1 satellite tv HQ rip (nggak mungkin HD karena 90an blom ada)
======================================
kekurangan :
- ada logo VH1 (dari awal-akhir)
- ada banner.bumper bahasa semacam spanyol (tp cuma sebentar)
kelebihan :
- hampir semua lagu favorit hits 90an ada
- di youtube kemungkinan ada tapi kualitas jauh lebih baik ini
- kualitas video lebih baik dari youtube yg biasanya video jadul kualitasnya ancur
- semua link DEPO***FILES yg terkenal ngebut dan bisa resume walau tidak premium sekalipun
silahkan dipilih
[QUOTE]Ace of Base - Cruel Summer.mkv
Ace of Base - The sign.mkv
Aerosmith - Love in an elevator.mkv
Aerosmith - The Other Side.mkv
A-Ha - The Living Daylights.mkv
Alanis Morissette - Hand in my pocket.mkv
Alanis Morissette - Head over feet.mkv
Alanis Morissette - You Learn.mkv
Uesugikenshin - 07/09/2012 08:39 PM
#7005

Therion - Live at Hellfest (2011)

Quote:
Non-Indonesian Video Corner - part 3
Country: Sweden
Genre: Symphonic Metal
Quality: WEBRIP, AVI / 720x480
Size: 853 Mb

Tracklist:

01 The Blood of Kingu
02 Cults of the Shadow
03 The Rise of Sodom and Gomorrah
04 Hellequin
05 Abraxas
06 Ginnungagap
07 Kali Yuga, Pt. III
08 To Mega Therion
09 Summer Night City
[CODE]http://ul.to/0i5owfxz
http://uploadjet.net/9lxl3w2rq835/Therion_-_Live_at__fest_2011.avi.htm[/CODE]
Bussal - 08/09/2012 12:14 AM
#7006

Quote:
Non-Indonesian Video Corner - part 3

Quote:
[CENTER]Show:http://www.tvrage.com/shows/id-8148||MTV Video Music Awards
Release Group: AFG
Release Name: MTV Video Music Awards 2012 HDTV XviD
Resolution: 640 pixels x 360 pixels
Runtime: 1h 20mn
Video: XVID | 1 262 Kbps
Audio: MP3 | 128 Kbps
Size: 804.63MB


[CODE]http://extabit.com/file/28du65gu1pedn
http://extabit.com/file/28du65gu1pku3 [/CODE]

[CODE]http://ul.to/zidhezav/MTV.Video.Music.Awards.2012.HDTV.XviD-AFG-upload_by_mr.missionw.part1.rar
http://ul.to/3ijvr5de/MTV.Video.Music.Awards.2012.HDTV.XviD-AFG-upload_by_mr.missionw.part2.rar[/CODE ]

[CODE]http://rapidgator.net/file/39990542/MTV.Video.Music.Awards.2012.HDTV.XviD-AFG-upload_by_mr.miss ionw.part1.rar.html
http://rapidgator.net/file/39990522/MTV.Video.Music.Awards.2012.HDTV.XviD-AFG-upload_by_mr.missionw.p art2.rar.html [/CODE][/CENTER]

credits : avRoo
mu110577 - 10/09/2012 12:05 AM
#7007

Gan, ada yang MF gak? Failed terus nih downloadnya....

Tq

Quote:
Original Posted By dr_veelgood
Freddie Mercury & Montserrat Caballé - Barcelona (2012 Version)

Non-Indonesian Video Corner - part 3

Spoiler for info
General
Complete name : Freddie Mercury & Montserrat Caballé - Barcelona (2012 Version) -dRv-.mp4
Format : MPEG-4
Format profile : Base Media / Version 2
Codec ID : mp42
File size : 174 MiB
Duration : 3mn 54s
Overall bit rate mode : Variable
Overall bit rate : 6 218 Kbps
Encoded date : UTC 2012-07-30 09:40:43
Tagged date : UTC 2012-07-30 09:40:43
gsst :
0 gstd : 234660
gssd : B4A7D64E4HH1346848804156355
gshh : o-o---preferred---ams04s09---v14---lscache7.c.youtube.com

Video
ID : 1
Format : AVC
Format/Info : Advanced Video Codec
Format profile : [email]High@L4.0[/email]
Format settings, CABAC : Yes
Format settings, ReFrames : 1 frame
Codec ID : avc1
Codec ID/Info : Advanced Video Coding
Duration : 3mn 54s
Bit rate : 6 023 Kbps
Maximum bit rate : 8 309 Kbps
Width : 1 920 pixels
Height : 1 080 pixels
Display aspect ratio : 16:9
Frame rate mode : Constant
Frame rate : 25.000 fps
Color space : YUV
Chroma subsampling : 4:2:0
Bit depth : 8 bits
Scan type : Progressive
Bits/(Pixel*Frame) : 0.116
Stream size : 168 MiB (97%)
Tagged date : UTC 2012-07-30 09:40:43

Audio
ID : 2
Format : AAC
Format/Info : Advanced Audio Codec
Format profile : LC
Codec ID : 40
Duration : 3mn 54s
Bit rate mode : Variable
Bit rate : 192 Kbps
Maximum bit rate : 202 Kbps
Channel(s) : 2 channels
Channel positions : Front: L R
Sampling rate : 44.1 KHz
Compression mode : Lossy
Stream size : 5.37 MiB (3%)
Title : IsoMedia File Produced by Google, 5-11-2011
Encoded date : UTC 2012-07-30 09:40:43
Tagged date : UTC 2012-07-30 09:40:43


[CODE]
http://turbobit.net/kb0jiu8uf71s.html
http://uploaded.net/file/jkjo53nr/
http://www.filefactory.com/file/2io4kqlq3ex5/n/Freddie_Mercury_amp_Montserrat_Caball_-_Barcelona_2012 _Version_-dRv-_mp4
[/CODE]



theduckyluck - 10/09/2012 04:12 AM
#7008

gan, request vid GreenDay di VMA, 720p or higher.. thanks before \)
seLfan.gerrad - 10/09/2012 01:48 PM
#7009

Request Live concert Celine Dion yg di Las Vegas tahun 2011 / 2012
dong gan, yg full concertnya
Thx beer:
dr_veelgood - 11/09/2012 04:43 AM
#7010

Quote:
Original Posted By mu110577
Gan, ada yang MF gak? Failed terus nih downloadnya....

Tq


gak ada masbro, lambat up kesitu \(
chester25 - 11/09/2012 09:42 AM
#7011

rikues clip HD nya
karmin - brokenhearted
GunSaysBang - 11/09/2012 09:55 AM
#7012

Quote:
Original Posted By chester25
rikues clip hd nya
karmin - brokenhearted


Quote:
karmin - brokenhearted
Quote:
Non-Indonesian Video Corner - part 3


[code][center]http://www.media*fire..com/?1m5c8wfovk1optu[/code][/center]


ctou
GunSaysBang - 11/09/2012 10:10 AM
#7013

Quote:
Original Posted By chester25
rikues clip hd
nicki minaj - pound the alarm
ellie goulding - lights


Quote:
nicki minaj - pound the alarm
Spoiler for skrincut
Non-Indonesian Video Corner - part 3

[code]http://www.media*fire..com/?hpv44vz6ah9icfs[/code]


ctou
chester25 - 11/09/2012 10:14 AM
#7014

^^
atas ane,thanks gan klip2nya
rikues lagi yg ellie goulding - lights yg HD
kemaren dikasihnya yg bukan HD
GunSaysBang - 11/09/2012 10:22 AM
#7015

Quote:
Original Posted By chester25
^^
atas ane,thanks gan klip2nya
rikues lagi yg ellie goulding - lights yg HD
kemaren dikasihnya yg bukan HD


[CODE]http://www.mediafire.com/?33uxva91l1q1vmg[/CODE]

CTOU
chester25 - 11/09/2012 01:20 PM
#7016

rikues lagi D

Jennifer Lopez - Goin' In ft. Flo Rida
Bridgit Mendler - Ready or Not
flo rida - whistle
GunSaysBang - 11/09/2012 11:30 PM
#7017

Quote:
Original Posted By chester25
rikues lagi D

Jennifer Lopez - Goin' In ft. Flo Rida
Bridgit Mendler - Ready or Not
flo rida - whistle

[CODE]http://www.mediafire.com/?64ww5u93o4dfyqq
http://uploaded.net/file/jxykq80m
http://www.media*fire..com/?2h82ose5zqgnndq[/CODE]


Ctou
Nepit 212 - 12/09/2012 11:02 AM
#7018

Permisi juragan semua.
W numpang request videonya Bone Thug n Harmony feat. Phil Collins - Home.
Gak usah yang HD, standar dar dar aja ya.
Maap kalo ngerepontin.

Thanx a lot gan. ilovekaskuss
t4n 69 - 12/09/2012 12:20 PM
#7019

all mau req when i grow up nya PCD dunk & kelly clarkson - dark side yg HD yah... o

makasih yah.....
butozrendat - 12/09/2012 04:53 PM
#7020

request yg maroon 5 Payphone donkk...maksih sebelumnya....
Page 351 of 356 | ‹ First  < 346 347 348 349 350 351 352 353 354 355 356 > 
Home > LOEKELOE > MUSIC > Music Corner > Non-Indonesian Video Corner - part 3